FLAC WORLD » Альбомы » MGMT - Loss of Life [24-bit Hi-Res] (2024) FLAC

MGMT - Loss of Life (2024) FLAC скачать торрент

0 Голосов  0
  • Просмотров: 104
    • Дата публикации: 29 март 2024, 21:54:10
    • Исполнитель: MGMT
    • Год издания: 2024
    • Название: Loss of Life
    • Стиль: Indie / Psychedelic-Pop
    • Кодек: FLAC
    • Тип рипа: tracks
    • Время звучания: 00:45:13
    • Размер: 991.91 MB
    Треклист • 01. Loss Of Life (part 2) (1:59)
    • 02. Mother Nature (3:56)
    • 03. Dancing In Babylon (feat. Christine and the Queens) (4:52)
    • 04. People In The Streets (5:37)
    • 05. Bubblegum Dog (4:22)
    • 06. Nothing To Declare (3:33)
    • 07. Nothing Changes (6:35)
    • 08. Phradie’s Song (4:54)
    • 09. I Wish I Was Joking (3:46)
    • 10. Loss Of Life (5:39)
    DRM
    foobar2000 1.6.12 / Замер динамического диапазона (DR) 1.1.1
    --------------------------------------------------------------------------------
    Анализ: MGMT / Loss Of Life
    --------------------------------------------------------------------------------
    DR Пики RMS Продолжительность трека
    --------------------------------------------------------------------------------
    DR10 -0.18 дБ -12.05 дБ 1:59 ?-Loss Of Life (part 2)
    DR5 -0.18 дБ -8.24 дБ 3:56 ?-Mother Nature
    DR6 -0.99 дБ -10.12 дБ 4:52 ?-Dancing In Babylon (feat. Christine and the Queens)
    DR6 -0.15 дБ -9.70 дБ 5:37 ?-People In The Streets
    DR3 -1.58 дБ -6.94 дБ 4:22 ?-Bubblegum Dog
    DR6 -0.18 дБ -7.56 дБ 3:33 ?-Nothing To Declare
    DR6 -0.18 дБ -7.94 дБ 6:35 ?-Nothing Changes
    DR6 -0.97 дБ -9.64 дБ 4:54 ?-Phradie’s Song
    DR6 0.00 дБ -7.64 дБ 3:46 ?-I Wish I Was Joking
    DR5 -0.52 дБ -9.12 дБ 5:39 ?-Loss Of Life
    --------------------------------------------------------------------------------
    Количество треков: 10
    Реальные значения DR: DR6
    Частота: 96000 Гц
    Каналов: 2
    Разрядность: 24
    Битрейт: 3001 кбит/с
    Кодек: FLAC
    ================================================================================


    Группа MGMT исполняющая музыку в жанре Indie / Psychedelic-Pop, выпустила для скачивания с помощью торрента Loss of Life. MGMT записали свой в 2024 году. После скачивания альбома, оцените пожалуйста материал или прокомментируйте, мы старались.



    Скачать торрент [20.76 Kb] (cкачиваний: 15)
    • Рекомендации
    • Комментарии (0)
      • Смайлы и люди
        Животные и природа
        Еда и напитки
        Активность
        Путешествия и места
        Предметы
        Символы
        Флаги
↑ Наверх